Miss Bala 2019 720p HDCAM LLG

seeders: 3 leechers: 1 updated: unknown
Added on by LifeLong1 1,968 in Movies > Cam
Torrent verified. Downloaded 28 times.
Infohash 6c3579a07f579c993d9fa83c016cb260fec41c18
0
0
Cover
Miss Bala (2019) PG-13
Runtime 104 min

Video Other — 720p — Unknown
Audio English

Directed by Catherine Hardwicke
Written by Gareth Dunnet-Alcocer (screenplay by)

Genres Action, Drama, Thriller

Gloria finds a power she never knew she had when she is drawn into a dangerous world of cross-border crime. Surviving will require all of her cunning, inventiveness, and strength. Based on the Spanish-language film.

Also available as: 720p
  • Miss Bala 2019 720p HDCAM.LLG (Size: 1.55 GB)
      • SAMPLE.ts
      2.63 MB
      • Miss Bala 2019 720p HDCAM.LLG.mp4
      1.55 GB
    • Files view Limit 50 — Current Torrent have 2 files

Description

Quote



******************************Thumbnail:**********************



******************************Screenshots:********************

Screenshot 1

Screenshot 2

Screenshot 3

Screenshot 4

Screenshot 5

******************************************************

Miss Bala 2019 720p HDCAM.LLG.mp4
Format                                   : MPEG-4
Format profile                           : Base Media
Codec ID                                 : isom (isom/iso2/avc1/mp41)
File size                                : 1.55 GiB
Duration                                 : 1 h 40 min
Overall bit rate mode                    : Variable
Overall bit rate                         : 2 207 kb/s


Video
ID                                       : 1
Format                                   : AVC
Format/Info                              : Advanced Video Codec
Format profile                           : Main@L3.1
Format settings                          : CABAC / 1 Ref Frames
Format settings, CABAC                   : Yes
Format settings, RefFrames               : 1 frame
Codec ID                                 : avc1
Codec ID/Info                            : Advanced Video Coding
Duration                                 : 1 h 40 min
Bit rate mode                            : Variable
Bit rate                                 : 2 012 kb/s
Maximum bit rate                         : 6 000 kb/s
Width                                    : 1 280 pixels
Height                                   : 536 pixels
Display aspect ratio                     : 2.40:1
Frame rate mode                          : Constant
Frame rate                               : 29.970 (29970/1000) FPS
Original frame rate                      : 29.970 (30000/1001) FPS
Color space                              : YUV
Chroma subsampling                       : 4:2:0
Bit depth                                : 8 bits
Scan type                                : Progressive
Bits/(Pixel*Frame)                       : 0.098
Stream size                              : 1.41 GiB (91%)


Audio
ID                                       : 2
Format                                   : AC-3
Format/Info                              : Audio Coding 3
Commercial name                          : Dolby Digital
Codec ID                                 : ac-3
Duration                                 : 1 h 40 min
Bit rate mode                            : Constant
Bit rate                                 : 192 kb/s
Channel(s)                               : 2 channels
Channel layout                           : L R
Sampling rate                            : 48.0 kHz
Frame rate                               : 31.250 FPS (1536 SPF)
Bit depth                                : 16 bits
Compression mode                         : Lossy
Stream size                              : 138 MiB (9%)
Service kind                             : Complete Main
Default                                  : Yes
Alternate group                          : 1




********************************************************



Content temp disabled.

Sharing Widget

To share this torrent inserting the provided BBCode into comments, status messages, forum posts or your signature.