How To Train Your Dragon 3 The Hidden World 2019 Movies HD Cam x264 Clean Audio New Source with Sample ☻rDX☻

seeders: 54 leechers: 12 updated: unknown
Added on by teamrDX 12,148 in Movies > Cam
Torrent verified. Downloaded 2,913 times.
Infohash d957e312360a8dcc782eec8de6591f9a990e41e7
0
0
Cover
How to Train Your Dragon: The Hidden World (2019) PG
Runtime 104 min

Video Other — Other — x264
Audio English

Directed by Dean DeBlois
Written by Dean DeBlois, Cressida Cowell (based upon the "How to Train Your Dragon" book series by)

Genres Animation, Action, Adventure, Comedy, Family, Fantasy

When Hiccup discovers Toothless isn't the only Night Fury, he must seek "The Hidden World", a secret Dragon Utopia before a hired tyrant named Grimmel finds it first.

Also available as: x264

Description

How To Train Your Dragon 3 The Hidden World 2019 Movies HD Cam x264 Clean Audio New Source with Sample ☻rDX☻

Screen Shots

http://iphonehosting.eu/2018/12/airline/1.html
http://iphonehosting.eu/2018/12/airline/2.html
http://iphonehosting.eu/2018/12/airline/3.html
http://iphonehosting.eu/2018/12/airline/4.html
http://iphonehosting.eu/2018/12/airline/5.html


File size                                : 701 MiB
Duration                                 : 1 h 35 min
Overall bit rate                         : 1 030 kb/s
Movie name                               : How To Train Your Dragon 3 The Hidden World 2019 Movies HD Cam x264 Clean Audio New Source ☻rDX☻

Video
ID                                       : 2
Format                                   : AVC
Format/Info                              : Advanced Video Codec
Format profile                           : Main@L3
Format settings, CABAC                   : Yes
Format settings, ReFrames                : 2 frames
Format settings, GOP                     : M=1, N=12
Codec ID                                 : V_MPEG4/ISO/AVC
Duration                                 : 1 h 35 min
Bit rate                                 : 946 kb/s
Width                                    : 700 pixels
Height                                   : 294 pixels
Display aspect ratio                     : 2.40:1
Frame rate mode                          : Constant
Frame rate                               : 29.970 (30000/1001) FPS
Color space                              : YUV
Chroma subsampling                       : 4:2:0
Bit depth                                : 8 bits
Scan type                                : Progressive
Bits/(Pixel*Frame)                       : 0.153
Stream size                              : 643 MiB (92%)
Title                                    : ☻rDX☻
Default                                  : Yes
Forced                                   : No

Audio
ID                                       : 1
Format                                   : AC-3
Format/Info                              : Audio Coding 3
Mode extension                           : CM (complete main)
Format settings, Endianness              : Big
Codec ID                                 : A_AC3
Duration                                 : 1 h 35 min
Bit rate mode                            : Constant
Bit rate                                 : 64.0 kb/s
Channel(s)                               : 2 channels
Channel positions                        : Front: L R
Sampling rate                            : 44.1 kHz
Frame rate                               : 28.711 FPS (1536 spf)
Bit depth                                : 16 bits
Compression mode                         : Lossy
Stream size                              : 43.5 MiB (6%)
Title                                    : ☻rDX☻
Default                                  : Yes
Forced                                   : No

http://www.imdb.com/title/tt2386490/


Sharing Widget

To share this torrent inserting the provided BBCode into comments, status messages, forum posts or your signature.