An Affair to Die For 2019 HDRip AC3 X264 LLG 18+

seeders: 4 leechers: 1 updated: unknown
Added on by LifeLong1 1,968 in Movies > Other
Torrent verified. Downloaded 5 times.
Infohash 2325578d4c222075f6b0ef0afed64211b51c2425
0
0
Cover
An Affair to Die For (2019)
Runtime 82 min

Video Other — Other — Unknown
Audio English

Directed by Víctor García
Written by Elliott San

Genres

A secret rendezvous. A man cheats on his wife. A woman cheats on her husband. And then everything goes bad, quickly.

Also available as:

Description

Quote



******************************Thumbnail:**********************



******************************Screenshots:********************

Screenshot 1

Screenshot 2

Screenshot 3

Screenshot 4

Screenshot 5

******************************************************

18+.An.Affair.to.Die.For.2019.HDRip.AC3.X264.LLG.mp4
Format                                   : MPEG-4
Format profile                           : Base Media
Codec ID                                 : isom (isom/iso2/avc1/mp41)
File size                                : 837 MiB
Duration                                 : 1 h 22 min
Overall bit rate mode                    : Variable
Overall bit rate                         : 1 414 kb/s


Video
ID                                       : 1
Format                                   : AVC
Format/Info                              : Advanced Video Codec
Format profile                           : Main@L3
Format settings                          : CABAC / 1 Ref Frames
Format settings, CABAC                   : Yes
Format settings, RefFrames               : 1 frame
Codec ID                                 : avc1
Codec ID/Info                            : Advanced Video Coding
Duration                                 : 1 h 22 min
Bit rate mode                            : Variable
Bit rate                                 : 1 027 kb/s
Maximum bit rate                         : 3 600 kb/s
Width                                    : 720 pixels
Height                                   : 304 pixels
Display aspect ratio                     : 2.35:1
Frame rate mode                          : Constant
Frame rate                               : 23.976 (23976/1000) FPS
Color space                              : YUV
Chroma subsampling                       : 4:2:0
Bit depth                                : 8 bits
Scan type                                : Progressive
Bits/(Pixel*Frame)                       : 0.196
Stream size                              : 607 MiB (73%)


Audio
ID                                       : 2
Format                                   : AC-3
Format/Info                              : Audio Coding 3
Commercial name                          : Dolby Digital
Codec ID                                 : ac-3
Duration                                 : 1 h 22 min
Bit rate mode                            : Constant
Bit rate                                 : 384 kb/s
Channel(s)                               : 6 channels
Channel layout                           : L R C LFE Ls Rs
Sampling rate                            : 48.0 kHz
Frame rate                               : 31.250 FPS (1536 SPF)
Bit depth                                : 16 bits
Compression mode                         : Lossy
Stream size                              : 227 MiB (27%)
Language                                 : English
Service kind                             : Complete Main
Default                                  : Yes
Alternate group                          : 1


********************************************************



Content temp disabled.

Sharing Widget

To share this torrent inserting the provided BBCode into comments, status messages, forum posts or your signature.