Between Worlds 2018 720p BluRay X264 ENG SUB LLG 18+

seeders: 4 leechers: 1 updated: unknown
Added on by LifeLong1 1,968 in Movies > HD
Torrent verified. Downloaded 17 times.
Infohash 896bebcccc8186eea760063f1befecedc279a629
0
0
Cover
Between Worlds (2018) R
Runtime 90 min

Video Other — 720p — Unknown
Audio English

Directed by Maria Pulera
Written by Maria Pulera

Genres Fantasy, Thriller

Joe meets a mother who can contact spirits when suffocating. Her daughter is dying when Joe helps the mother spiritually contact the daughter and save her. Unfortunately, the spirit in the daughter's body is now that of Joe's dead wife.

Also available as: 720p

Description

Quote



******************************Thumbnail:**********************



******************************Screenshots:********************

Screenshot 1

Screenshot 2

Screenshot 3

Screenshot 4

Screenshot 5

******************************************************

18+.Between.Worlds.2018.720p.BluRay.X264.ENG.SUB.LLG.mp4
Format                                   : MPEG-4
Format profile                           : Base Media
Codec ID                                 : isom (isom/iso2/avc1/mp41)
File size                                : 1.26 GiB
Duration                                 : 1 h 30 min
Overall bit rate mode                    : Variable
Overall bit rate                         : 1 997 kb/s


Video
ID                                       : 1
Format                                   : AVC
Format/Info                              : Advanced Video Codec
Format profile                           : Main@L3.1
Format settings                          : CABAC / 1 Ref Frames
Format settings, CABAC                   : Yes
Format settings, RefFrames               : 1 frame
Codec ID                                 : avc1
Codec ID/Info                            : Advanced Video Coding
Duration                                 : 1 h 30 min
Bit rate mode                            : Variable
Bit rate                                 : 1 481 kb/s
Maximum bit rate                         : 4 500 kb/s
Width                                    : 1 280 pixels
Height                                   : 690 pixels
Display aspect ratio                     : 1.85:1
Frame rate mode                          : Constant
Frame rate                               : 23.976 (23976/1000) FPS
Color space                              : YUV
Chroma subsampling                       : 4:2:0
Bit depth                                : 8 bits
Scan type                                : Progressive
Bits/(Pixel*Frame)                       : 0.070
Stream size                              : 956 MiB (74%)
Language                                 : English


Audio
ID                                       : 2
Format                                   : AC-3
Format/Info                              : Audio Coding 3
Commercial name                          : Dolby Digital
Codec ID                                 : ac-3
Duration                                 : 1 h 30 min
Bit rate mode                            : Constant
Bit rate                                 : 512 kb/s
Channel(s)                               : 6 channels
Channel layout                           : L R C LFE Ls Rs
Sampling rate                            : 48.0 kHz
Frame rate                               : 31.250 FPS (1536 SPF)
Bit depth                                : 16 bits
Compression mode                         : Lossy
Stream size                              : 331 MiB (26%)
Service kind                             : Complete Main
Default                                  : Yes
Alternate group                          : 1



********************************************************



Content temp disabled.

Sharing Widget

To share this torrent inserting the provided BBCode into comments, status messages, forum posts or your signature.