Polar 2019 1080p NF WEB DL DD 5 1 x264 [MW]

seeders: 9 leechers: 3 updated: unknown
Added on by MWFreaky 4,300 in Movies > HD
Torrent verified. Downloaded 365 times.
Infohash 18181da5c46b47fa0cf7841134415b7c94c2bdc0
0
0
Cover
Polar (2019) TV-MA
Runtime 118 min

Video Other — 1080p — x264
Audio English

Directed by Jonas Åkerlund
Written by Jayson Rothwell (screenplay by), Víctor Santos (based on the Dark Horse graphic novel "Polar: Came from the cold" by)

Genres Action, Crime

The world's top assassin, Duncan Vizla, is settling into retirement when his former employer marks him as a liability to the firm. Against his will, he finds himself back in the game going head to head with an army of younger killers.

Also available as: 1080p 720p x264

Description



General
Format                                   : Matroska
Format version                           : Version 4
File size                                : 1.91 GiB
Duration                                 : 1 h 58 min
Overall bit rate                         : 2 303 kb/s

Video
ID                                       : 1
Format                                   : AVC
Format/Info                              : Advanced Video Codec
Format profile                           : High@L4.1
Format settings                          : CABAC / 4 Ref Frames
Format settings, CABAC                   : Yes
Format settings, RefFrames               : 4 frames
Codec ID                                 : V_MPEG4/ISO/AVC
Duration                                 : 1 h 58 min
Bit rate                                 : 2 000 kb/s
Width                                    : 1 920 pixels
Height                                   : 960 pixels
Display aspect ratio                     : 2.000
Frame rate mode                          : Constant
Frame rate                               : 23.976 (24000/1001) FPS
Color space                              : YUV
Chroma subsampling                       : 4:2:0
Bit depth                                : 8 bits
Scan type                                : Progressive
Bits/(Pixel*Frame)                       : 0.045
Stream size                              : 1.59 GiB (83%)
Writing library                          : x264 core 157 r2935 545de2f

Audio
ID                                       : 2
Format                                   : AC-3
Format/Info                              : Audio Coding 3
Commercial name                          : Dolby Digital
Codec ID                                 : A_AC3
Duration                                 : 1 h 58 min
Bit rate mode                            : Constant
Bit rate                                 : 384 kb/s
Channel(s)                               : 6 channels
Channel layout                           : L R C LFE Ls Rs
Sampling rate                            : 48.0 kHz
Frame rate                               : 31.250 FPS (1536 SPF)
Bit depth                                : 16 bits
Compression mode                         : Lossy
Stream size                              : 327 MiB (17%)
Language                                 : English
Service kind                             : Complete Main
Default                                  : Yes
Forced                                   : No


Click To View Image

http://pichub.site/image/krS2t
http://pichub.site/image/krRt6
http://pichub.site/image/krDj4
http://pichub.site/image/krdkp
http://pichub.site/image/kr7xy

Torrent name Size Files Age Seed Leech

Sharing Widget

To share this torrent inserting the provided BBCode into comments, status messages, forum posts or your signature.